77 7 7 bronze badges. 2. votes. ... i have setup manage identity between azure key vault and puppet master vm, after that using puppet mainfest code am trying to ...
SSAM was created for the sole purpose of documenting Vault 77's isolation experiment. For the purpose of keeping the vault dweller isolated Vault-Tec limited the ways he, and in turn SSAM, could communicate with anyone. SSAM is only able to observe the goings on in the vault through the numerous cameras placed throughout.
NECA is the voice of the $130 billion electrical construction industry that brings power, light, and communication technology to buildings and communities across the U.S.
77 Afflictors: 78 Aurore Beret (Haste if no W. Turban.) Aurore Doublet (TP if no Pantin Tobe/Evasion) Aurore Gloves (Haste if no Pantin Dastanas) Aurore Brais (Haste/ACC) Aurore Gaiters (EVA/Haste) 79 Shaolin Belt: 80 Verethragna /Taipan Fangs: Cirque Necklace: Level Range Notes: Hopefully you're part of a Dynamis Linkshell and you can get the ...
There's a Vault Suit for 77 with a holotape implying it's the Puppet Man's. I could buy that, if you say the puppet man was relatively young when he left the vault and maybe roamed the wastes for a long...
The lonesome vault dweller of vault 77 is the primary focus of this video. Why was he locked away Fallout 3 Penny Arcade Comic HD - Vault Boy Puppet (Story of Vault 77) Music - "A Kiss to Build a...
$ 12.95 $ 7.77 After foiling a plot to blow up an American arms plant, DANNY COOGAN and his girlfriend, BETH, quickly find that their troubles have just begun. One of Toulon’s mysterious Puppets has been kidnapped by the Nazis, and under the wicked, watchful eye of the occultist COMMANDANT MOEBIUS, the Puppets’ life-giving serum is synthesized to create a master race of unstoppable soldiers.
Updated Oct 17, 2020 by rand_al_thor using our MTG Deck Builder. A List of All Board Wipes in Commander, both on a Stick and not. Conditional: [[Fell the Mighty]], [[Elspeth, Sun's … Oct 17, 2012 · Puppets Elora, Elora, ON. 77 likes. World folk and fairy tales are brought to life with traditional hand-made puppets. Since 1995 Puppets Elora has traveled throughout Wellington, Waterloo and...
Also, Vault 77 is if Mr Rogers' Neighborhood went wrong. Though their puppets always creeped me out for some reason.
The TCGPlayer Price Guide tool shows you the value of a card based on the most reliable pricing information available. Choose your product line and set, and find exactly what you're looking for.
Παίξε το δωρεάν online παιχνίδι Dead Vault στο Y8.com! Κάνε κλικ για να παίξεις το δωρεάν παιχνίδι Dead Vault!
Straight talk mobile hotspot phone?
The following is the list of the spirits that are left unsorted by game series in Super Smash Bros. Ultimate. There are a total of 130 different games or series represented in the list. For the spirits available since the game release, the series are ordered by the console they debuted on and the year their first game released. For example, all series that debuted on the Game Boy are listed ... Feb 27, 2000 · Three puppets were taken out of the vault and placed on a large boardroom table in an office building in Groton, Conn. Mrs. Dawson, 86, instantly identified Original Howdy as her creation. For closer inspection, the head was pried off, and she said the base of the neck was exactly the way she had hand-shaped it.
The following is the list of the spirits that are left unsorted by game series in Super Smash Bros. Ultimate. There are a total of 130 different games or series represented in the list. For the spirits available since the game release, the series are ordered by the console they debuted on and the year their first game released. For example, all series that debuted on the Game Boy are listed ...
Vault Case - Pikachu for Nintendo SwitchCarry your Nintendo Switch or Nintendo Switch Lite in safety and style with the lightweight yet sturdy Vault...
From 1972 through 1978, GBH produced one of the nation’s most celebrated and best-loved children’s television shows, ZOOM.Aimed at an audience of children from about seven to twelve years of age, ZOOM reached millions through the expanding national public television network of the 1970s.
Fallout 3 Penny Arcade Comic HD - Vault Boy Puppet (Story of Vault 77) Music - "A Kiss to Build a Dream on" by Louis Armstrong Fallout 3 Vault 101 Jewel of...
Aug 27, 2015 · In Fallout lore, few stories are as creepy as "The Puppet Man" In our debut series, we take a look at the very sparse story of what exactly happened to the poor soul of vault 77. *This radio drama podcast is not affiliated with Bethesda Game Studios, Bethesda Softworks, or Zenimax. This fan fiction is for non profit.
Also, Vault 77 is if Mr Rogers' Neighborhood went wrong. Though their puppets always creeped me out for some reason.
Vault 77 was one of the Vaults created by Vault-Tec, and part of the Vault Experiment. Only one man entered this Vault, which also contained a crate of puppe...
David Bowie 77 Deep ... The Vault 30 Sale 35 Shop All 2765 Brands ... Metallica - Master Of Puppets 28AP3169 Japan OBI. $299.99
The mod adds another Vault 77 item that can be found at the Barracks at Paradise Falls. On the shelf above the Vault 77 suit you'll now find the Vault 77 Vaultboy Puppet.
DR7 -0.37 dB -8.77 dB 5:10 03-For Whom The Bell Tolls DR8 0.00 dB -9.59 dB 6:57 04-Fade To Black DR7 0.00 dB -7.89 dB 4:04 05-Trapped Under Ice
Find Great Buys in a Flash! Check Out Coupons.com Coupon Codes and Special Offers At Coupons.com, we offer handpicked product deals, printable coupons, and promo codes from over 20,000 merchants, including Macy's, Amazon.com, Best Buy, Travelocity, and thousands of other popular brands!
Vault 77 and the story of the puppet man. "One man, and a crate of puppets."pic.twitter.com/ey4EP9xJjC.
Play Free Unblocked Games for School. Shooting games test the player’s spatial awareness, reflexes, and speed. They are challenging and full of adrenaline. Therefore shooting games were and will remain the most played type of games in the video game world.
Bethesda Fallout Vault Boy Puppet Tease - pre - e3 2018 - Todd Howard Part 1: Vault Boy Thug Fallout 3 Penny Arcade Comic HD - Vault Boy Puppet (Story of Vault 77) Music - "A Kiss to Build a...
As a study of the human condition in near-complete isolation, Vault 77 was populated with just one man and a crate full of puppets, labeled "P13X U.S. GOVERNMENT ISSUE PUPPET RATION". Mentioned in Fallout 3. Vault 81
Vault 77 was one of the Vaults created by Vault-Tec, and part of the Vault Experiment. Only one man entered this Vault, which also contained a crate of puppe...
Play Unblocked Games 77 Online at here and have fun. Unblocked games at school, college, Offices and any where you want. we update addicting games on daily basis. Puppet Soccer 2015 - Unblocked Games 77
Sep 18, 2019 · This vault is just beyond fucked up: One Man and a Crate of Puppets. It ties in with events of Fallout 3. The protagonist discovered that he was the only living person in Vault 77, accompanied only by a crate of puppets, as part of a Vault-Tec exp...
The Vault of Horror was an American bi-monthly horror comic anthology series published by EC Comics in the early 1950s. Along with Tales from the Crypt and The Haunt of Fear, it formed a trifecta of popular EC horror anthologies.
Sonic the Hedgehog (ソニック・ザ・ヘッジホッグ, Sonikku za Hejjihoggu?, born 23 June89) is Sega's mascot and the eponymous protagonist of the Sonic the Hedgehog series. He is an anthropomorphic hedgehog born with the ability to run faster than the speed of sound, hence his name, and possesses lightning-fast reflexes to match. As his species implies, Sonic can also roll up into a ...
Aug 31, 2020 · TEXAS 27 FILM VAULT; ... Puppet Candidate in Two Pictures… – MyLegalHelpUSA. balladeer. ... November 2016 (77) October 2016 (73) September 2016 (62)
(Natural News) She’s all over the news these days, but 16-year-old Greta Thunberg isn’t homegrown or grassroots. Her climate schtick is completely a product of George Soros and Company, which feeds Thunberg her lines as she traipses around the world pretending to have come up with all this climate hysteria on her own.
FoxuTech is technology blog about Linux, DevOps, Docker, How Tos, Virtualization and more IT technologies.
DR7 -0.37 dB -8.77 dB 5:10 03-For Whom The Bell Tolls DR8 0.00 dB -9.59 dB 6:57 04-Fade To Black DR7 0.00 dB -7.89 dB 4:04 05-Trapped Under Ice
The Puppetman of Vault 77. By atomiccaffeine Watch. 9 Favourites. 0 Comments. 377 Views. fallout fallout3 fo3 puppetman vaultboy thepuppetman vault77. catching up on ...
Telegram marketing software cracked
John deere air ride seat parts
HypeVoiceActing- Vault 77 Dweller/The Puppet Man, Mr. Pinch LuckyJack020- Narrator, The Bandit's Boss JamesmanXtreme- Eye-Patch Bandit RonnieJKoopa- Random Ghoul, Bandit Bob.
King quad 750 battery problems
Cisco wlc custom webauth page
49153 error mac
Winchester 22lr bulk